#TITLE:萍聚;
#SUBTITLE:;
#ARTIST:萧淑慎;
#TITLETRANSLIT:;
#SUBTITLETRANSLIT:;
#ARTISTTRANSLIT:;
#CREDIT:;
#BANNER:6-logo.jpg;
#BACKGROUND:6.jpg;
#LYRICSPATH:;
#CDTITLE:Lan.png;
#MUSIC:6.mp3;
#OFFSET:-0.020;
#SAMPLESTART:100.000;
#SAMPLELENGTH:12.000;
#SELECTABLE:YES;
#BPMS:0.000=90.010,4.000=45.005,12.000=90.010;
#STOPS:;
#BGCHANGES:;
// cache tags:
#FIRSTBEAT:4.000;
#LASTBEAT:226.000;
#SONGFILENAME:Songs/SDO 2/6/6.sm;
#HASMUSIC:1;
#HASBANNER:1;
#MUSICLENGTH:159.154;
// end cache tags

//---------------dance-single - 标准----------------
#NOTES:
     dance-single:
     标准:
     Hard:
     8:
     0.638,0.657,0.578,0.006,0.719,596.000,92.000,1.000,0.000,20.000:


0000
0000
0000
0000
,
1000
0100
0010
0001
0000
0000
0000
0000
0001
0010
0100
1000
0000
0000
0000
0000
1000
0100
0010
0001
0000
0000
0000
0000
0001
0010
0100
1000
0100
0010
0001
0000
,
1000
0100
0010
0001
0000
0000
0000
0000
0001
0010
0100
1000
0000
0000
0000
0000
1000
0100
0010
0001
0000
0000
0000
0000
0001
0010
0100
1000
0100
0010
0001
0000
,
1000
0100
0010
0001
0000
0000
0000
0000
0001
0010
0100
1000
0000
0000
0000
0000
,
1000
0100
0010
0001
0000
0000
0000
0000
0001
0010
0100
1000
0100
0010
0001
0000
,
1000
0100
0010
0001
0000
0000
0000
0000
0001
0010
0100
1000
0000
0000
0000
0000
,
1000
0100
0010
0001
0000
0000
0000
0000
0001
0010
0100
1000
0100
0010
0001
0000
,
1101
0000
0001
0011
0101
0000
0010
0000
,
0101
0000
0001
1001
0011
0000
0010
0000
,
1101
0000
0001
0011
0101
0000
0010
0000
,
0101
0000
0001
1001
0011
0000
0010
0000
,
1101
0000
0001
0011
0101
0000
0010
0000
,
0101
0000
0001
1001
0011
0000
0010
0000
,
1101
0000
0001
0011
0101
0000
0010
0000
,
0101
0000
0001
1001
0011
0000
0010
0110
,
1111
0100
0101
0010
1010
0010
0101
0010
,
0110
0100
1100
0010
1010
0010
1001
0010
,
1010
0010
0101
0010
0110
0100
1100
0010
,
1010
0000
0010
0001
0100
1000
0010
0000
1010
0100
0010
0100
0010
0100
1000
0100
,
1011
0001
0010
0100
0010
0001
1000
0001
0100
0010
1000
0001
0010
1000
0010
0001
,
0100
0001
0010
1000
0100
0010
0100
0001
0000
0000
0000
1000
0001
1000
0010
0100
,
0010
0100
1000
0001
0010
1000
0100
0010
0001
1000
0010
0100
0001
0010
1000
0010
,
0002
0000
0000
0000
0000
0003
0000
0000
,
1000
1000
0001
0001
0010
1000
0001
0010
0100
1000
0001
0010
1000
0001
0010
0000
,
1000
0100
1000
0001
0010
0100
0010
1000
0001
0010
0100
0010
1000
0100
0001
1000
,
0100
0001
0000
0001
0010
0001
0100
0010
0100
1000
0100
1000
0010
0001
0010
1000
,
0100
0001
0000
1000
0100
0010
1000
0100
0001
0010
0001
0010
0100
0001
0010
0000
,
1000
0100
1000
0001
0010
0100
0001
0010
1000
0100
0001
0010
0100
0001
0010
0100
,
1011
0000
0001
0010
0100
1000
0001
0010
0001
0010
0100
0001
1000
0010
0100
0001
,
1101
1000
0100
0001
0000
0001
0010
0001
0100
0010
0100
1000
0100
1000
0010
0001
,
0010
1000
0100
0001
0000
1000
0100
0010
1000
0100
0001
0010
0001
0010
0100
0000
,
1011
0000
1000
0000
0001
1000
0100
1000
0010
0001
0010
0100
1000
0000
1000
0000
,
0001
1000
0100
1000
0010
0001
0010
0100
1000
0011
0011
0000
0011
0000
1000
0000
,
1101
0100
0001
0100
1000
0010
0001
0100
0001
1000
0100
0001
0010
0100
1000
0001
,
0010
0100
0010
0100
1000
0010
0001
0100
1000
0001
1000
0100
0001
0010
0001
1000
,
0111
1000
0001
0010
0001
0001
0100
0001
1000
0100
0001
0010
0100
0001
0010
0100
,
1011
0000
0001
0000
0001
1000
0001
0000
1011
0000
0001
0000
0001
1000
0001
0000
,
0101
1000
0001
0010
0100
0001
0010
0001
0010
1000
0100
0001
0010
0100
0001
0000
,
1011
0000
0001
0000
0100
0000
0001
1000
0001
0010
0100
0001
0010
0000
0000
0000
,
1011
0000
0001
0011
0101
0000
0010
0000
,
0101
0000
0001
1001
0011
0000
0010
0000
,
1101
0000
0001
0011
0101
0000
0010
0000
,
0101
0000
0001
1001
0011
0000
0010
0000
,
1101
0000
0001
0011
0101
0000
0010
0000
,
0101
0000
0001
1001
0011
0000
0010
0000
,
1101
0000
0001
0011
0101
0000
0010
0000
,
0101
0000
0001
1001
0011
0000
0010
0110
,
1111
0100
0101
0010
1010
0010
0101
0010
,
0110
0100
1100
0010
1010
0010
1001
0010
,
1010
0010
0101
0010
0110
0100
1100
0010
,
1010
0000
0010
0001
0100
1000
0010
0000
1010
0100
0010
0100
0010
0100
1000
0100
,
1011
0001
0010
0100
0010
0001
1000
0001
0100
0010
1000
0001
0010
1000
0010
0001
,
0100
0001
0010
1000
0100
0010
0100
0001
1000
0010
0100
1000
0001
1000
0010
0100
,
0010
0100
1000
0001
0010
1000
0100
0010
0001
1000
0010
0100
0001
0010
1000
0010
,
0001
1000
0100
0001
0010
1000
0001
0010
0001
1000
0001
0010
0100
0001
1000
0001
,
0100
0010
0100
0001
0010
1000
0001
0010
0001
1000
0001
0010
0100
0001
1000
0000
,
0001
0010
0001
1000
0001
0010
0100
0001
1000
0000
0000
0000
0000
0000
0000
0000
;
